coor
一代宗师

[更 早] [欧美] [其他] [BD-1080P] 玩尽杀绝/野东西 Wild.Things.1998.UNRATED.1080p.BluRay.x264.DTS-FGT 10.13GB

-->



◎译  名 玩尽杀绝 / 野东西
◎片  名 Wild Things
◎年  代 1998
◎产  地 美国
◎类  别 悬疑 / 惊悚 / 犯罪
◎语  言 英语
◎上映日期 1998-03-20
◎IMDb评分 6.5/10 from 105408 users
◎IMDb链接 https://www.imdb.com/title/tt0120890
◎豆瓣评分 7.0/10 from 12281 users
◎豆瓣链接 https://movie.douban.com/subject/1292552/
◎片  长 108 分钟
◎导  演 约翰·麦克诺顿 John McNaughton
◎编  剧 Stephen Peters
◎主  演 凯文·贝肯 Kevin Bacon
      马特·狄龙 Matt Dillon
      内芙·坎贝尔 Neve Campbell
      泰莉莎·拉塞尔 Theresa Russell
      丹妮丝·理查兹 Denise Richards
      达芬妮·鲁宾-维佳 Daphne Rubin-Vega
      罗伯特·瓦格纳 Robert Wagner
      比尔·默瑞 Bill Murray
      Carrie Snodgress
      杰夫·帕里 Jeff Perry
      Cory Pendergast
      马克·麦考利 Marc Macaulay
      Toi Svane Stepp
      Dennis Neal
      Diane Adams


◎标  签 悬疑 | 美国 | 犯罪 | 情色 | 惊悚 | 美国电影 | 1998 | 人性

◎简  介

  这是一局环环紧扣的阴谋游戏。小镇上的中学教师萨姆(马特?狄龙 Matt Dillon 饰)这天为学生作完性主题的犯罪演讲后,女学生凯莉就溜进了他的房间,面对青春迷人的凯莉(丹妮丝?理查兹 Denise Richards 饰),萨姆惊得目瞪口呆。这一幕被凯莉的母亲桑德拉(泰莉莎?拉塞尔 Theresa Russell 饰)撞见了,她此前曾和萨姆有过风流的一夜。醋意大发的桑德拉以学校捐助人的身份要求校长将萨姆解职,萨姆因此糊里糊涂丢掉了工作。屋漏偏逢连夜雨,小镇上的一名女学生苏茜(内芙?坎贝尔 Neve Campbell 饰)突然控告萨姆强奸了自己,桑德拉出资聘请了有名的大律师状告萨姆。身无分文的萨姆请不起律师,虽然有贪财的保险人博登在庭上帮他辩护,但面对对方的资深律师,法庭的形势对萨姆十分不利。然而此时,事态有了新的转折!
Video
ID : 1
Format : AVC
Format/Info : Advanced Video Codec
Format profile : [email protected]
Format settings : CABAC / 5 Ref Frames
Format settings, CABAC : Yes
Format settings, Reference frames : 5 frames
Codec ID : V_MPEG4/ISO/AVC
Duration : 1 h 54 min
Bit rate : 11.1 Mb/s
Width : 1 920 pixels
Height : 800 pixels
Display aspect ratio : 2.40:1
Frame rate mode : Constant
Frame rate : 23.976 FPS
Color space : YUV
Chroma subsampling : 4:2:0
Bit depth : 8 bits
Scan type : Progressive
Bits/(Pixel*Frame) : 0.302
Stream size : 8.72 GiB (86%)
Writing library : x264 core 58 svn-736M
Encoding settings : cabac=1 / ref=5 / deblock=1:-3:-3 / analyse=0x3:0x113 / me=umh / subme=7 / me-prepass=0 / brdo=1 / mixed_ref=1 / me_range=16 / chroma_me=1 / trellis=1 / 8x8dct=1 / cqm=2 / deadzone=6,4 / chroma_qp_offset=0 / threads=6 / nr=0 / decimate=0 / mbaff=0 / bframes=3 / b_pyramid=1 / b_adapt=1 / b_bias=0 / direct=3 / wpredb=1 / bime=1 / keyint=250 / keyint_min=25 / scenecut=40(pre) / rc=2pass / bitrate=11127 / ratetol=1.0 / rceq='blurCplx^(1-qComp)' / qcomp=1.00 / qpmin=10 / qpmax=51 / qpstep=4 / cplxblur=20.0 / qblur=0.5 / ip_ratio=1.40 / pb_ratio=1.30 / aq=1:0.5:13.0
Language : English
Default : Yes
Forced : No

Audio
ID : 2
Format : DTS
Format/Info : Digital Theater Systems
Codec ID : A_DTS
Duration : 1 h 54 min
Bit rate mode : Constant
Bit rate : 1 510 kb/s
Channel(s) : 6 channels
Channel layout : C L R Ls Rs LFE
Sampling rate : 48.0 kHz
Frame rate : 93.750 FPS (512 SPF)
Bit depth : 24 bits
Compression mode : Lossy
Stream size : 1.21 GiB (12%)
Language : English
Default : Yes
Forced : No

Text
ID : 3
Format : UTF-8
Codec ID : S_TEXT/UTF8
Codec ID/Info : UTF-8 Plain Text
Language : English
Default : Yes
Forced : No





1 个附件 售价 大小 下载 时间

Wild.Things.1998.UNRATED.1080p.BluRay.x264.DTS-FGT.torrent 0 金币 51.29K 861 次 8天前

#1楼
发帖时间:2020-06-30 11:03:27   |   回复数:2
911degrees
隐世仙人♂
非常感谢,谢谢分享
8天前 #2楼
jokingcheung
一代宗师
谢谢分享
7天前 #3楼
游客组