coor
一代宗师

[2012] [欧美] [喜剧] [BD-1080P] 奇异恐惧/对一切的美妙恐惧 A.Fantastic.Fear.of.Everything.2012.1080p.BluRay.x264.DTS-FGT 8.80

-->



◎译  名 奇异恐惧 / 对一切的美妙恐惧
◎片  名 A Fantastic Fear of Everything
◎年  代 2012
◎产  地 英国
◎类  别 喜剧
◎语  言 英语
◎上映日期 2012-06-08(英国)
◎IMDb评分 5.8/10 from 13865 users
◎IMDb链接 https://www.imdb.com/title/tt2006040
◎豆瓣评分 6.8/10 from 3395 users
◎豆瓣链接 https://movie.douban.com/subject/6873148/
◎片  长 100分钟
◎导  演 Crispian Mills / Chris Hopewell
◎编  剧 Crispian Mills
◎主  演 西蒙·佩吉 Simon Pegg
      克莱儿·希金斯 Clare Higgins
      Amara Karan
      保罗·弗里曼 Paul Freeman
      Alan Drake


◎标  签 英国 | 喜剧 | 黑色幽默 | SimonPegg | 2012 | 英国电影 | 西蒙·佩吉 | 西蒙佩吉

◎简  介

  西蒙·佩吉饰演一个从儿童文学转向犯罪小说写作的作家杰克,为了写作一个名为《几十年的死亡》(Decades of Death)的剧本,天生胆小的杰克开始调查一些维多利亚时期连环杀手的资料,导致自己患上严重的妄想症,总是臆想自己会遭到谋杀。就在杰克生活搞得一团糟的时候,一个神秘的好莱坞片商却对他写出的剧本表示出极大的兴趣。
Video
ID : 1
Format : AVC
Format/Info : Advanced Video Codec
Format profile : [email protected]
Format settings, CABAC : Yes
Format settings, ReFrames : 3 frames
Codec ID : V_MPEG4/ISO/AVC
Duration : 1h 40mn
Bit rate : 11.0 Mbps
Width : 1 920 pixels
Height : 1 040 pixels
Display aspect ratio : 1.85:1
Frame rate mode : Constant
Frame rate : 23.976 fps
Color space : YUV
Chroma subsampling : 4:2:0
Bit depth : 8 bits
Scan type : Progressive
Bits/(Pixel*Frame) : 0.230
Stream size : 7.57 GiB (86%)
Writing library : x264 core 125 r2200 999b753
Encoding settings : cabac=1 / ref=4 / deblock=1:-2:-2 / analyse=0x3:0x113 / me=umh / subme=10 / psy=1 / psy_rd=1.01:0.00 / mixed_ref=1 / me_range=48 / chroma_me=1 / trellis=2 / 8x8dct=1 / cqm=0 / deadzone=21,11 / fast_pskip=0 / chroma_qp_offset=-2 / threads=6 / lookahead_threads=1 / sliced_threads=0 / nr=0 / decimate=1 / interlaced=0 / bluray_compat=0 / constrained_intra=0 / bframes=9 / b_pyramid=1 / b_adapt=2 / b_bias=0 / direct=3 / weightb=1 / open_gop=0 / weightp=2 / keyint=240 / keyint_min=23 / scenecut=40 / intra_refresh=0 / rc_lookahead=100 / rc=2pass / mbtree=1 / bitrate=11012 / ratetol=1.0 / qcomp=0.60 / qpmin=10 / qpmax=51 / qpstep=4 / cplxblur=20.0 / qblur=0.5 / vbv_maxrate=48000 / vbv_bufsize=40000 / nal_hrd=none / ip_ratio=1.40 / aq=1:1.00
Language : English
Default : Yes
Forced : No

Audio
ID : 2
Format : DTS
Format/Info : Digital Theater Systems
Mode : 16
Format settings, Endianness : Big
Codec ID : A_DTS
Duration : 1h 40mn
Bit rate mode : Constant
Bit rate : 1 509 Kbps
Channel(s) : 6 channels
Channel positions : Front: L C R, Side: L R, LFE
Sampling rate : 48.0 KHz
Bit depth : 24 bits
Compression mode : Lossy
Stream size : 1.06 GiB (12%)
Language : English
Default : Yes
Forced : No

Text #1
ID : 3
Format : PGS
Muxing mode : zlib
Codec ID : S_HDMV/PGS
Codec ID/Info : Picture based subtitle format used on BDs/HD-DVDs
Language : English
Default : No
Forced : No

Text #2
ID : 4
Format : PGS
Muxing mode : zlib
Codec ID : S_HDMV/PGS
Codec ID/Info : Picture based subtitle format used on BDs/HD-DVDs
Language : Portuguese
Default : No
Forced : No

Text #3
ID : 5
Format : PGS
Muxing mode : zlib
Codec ID : S_HDMV/PGS
Codec ID/Info : Picture based subtitle format used on BDs/HD-DVDs
Language : Spanish
Default : No
Forced : No





1 个附件 售价 大小 下载 时间

A.Fantastic.Fear.of.Everything.2012.1080p.BluRay.x264.DTS-FGT.torrent 0 金币 88.63K 224 次 2天前

#1楼
发帖时间:2020-06-30 23:08:13   |   回复数:2
chulps
一代宗师
~ 珍惜+支持 ~
2天前 #2楼
911degrees
隐世仙人♂
非常感谢,谢谢分享
2天前 #3楼
游客组