coor
一代宗师

[更 早] [欧美] [动作] [BD-1080P] 龙卷风/龙卷风暴 Twister.1996.1080p.BluRay.x264.DTS-FGT 10.27GB

-->



◎译  名 龙卷风 / 龙卷风暴
◎片  名 Twister
◎年  代 1996
◎产  地 美国
◎类  别 动作 / 冒险 / 灾难
◎语  言 英语
◎上映日期 1996-05-10
◎IMDb评分 6.4/10 from 171657 users
◎IMDb链接 https://www.imdb.com/title/tt0117998
◎豆瓣评分 7.3/10 from 25284 users
◎豆瓣链接 https://movie.douban.com/subject/1292454/
◎片  长 113 分钟
◎导  演 Jan de Bont
◎编  剧 Michael Crichton / Anne-Marie Martin
◎主  演 Helen Hunt
      Bill Paxton
      Cary Elwes
      Jami Gertz
      Philip Seymour Hoffman


◎标  签 灾难 | 美国 | 美国电影 | 科幻 | 龙卷风 | 灾难片 | 1996 | 电影

◎简  介

  龙卷风的暴戾和神秘吸引了大批科学家的深入研究,深入风暴中间是最危险的行为,但亦是探索龙卷风最有效的方法。乔(海伦·亨特 Helen Hunt饰)和离婚的丈夫比尔(比尔·帕克斯顿 Bill Paxton饰)就是这类“与龙共舞”的科学家,即使他们感情已经破裂,比尔也已找到新的恋人,但出于对龙卷风研究的痴迷,他们还是决定共同追逐一场俄克拉何马州的飓风,并把新研制成功的探测仪“多萝西”放到龙卷风中心收集数据。
  他们驾驶着破旧的货车,带领着追风队,向最危险的地方进发。同时,另一队装备精良的人马也朝着这个方向驶去,由裘纳(加利·艾尔维斯 Cary Elwes饰)领队,在追风行动中和乔激励较劲。
  一边是志同道合的乔,一边是畏惧惊险生活的新女友,比尔在追风过程中如何重新抉择自己的感情道路?更重要的是,面对实力雄厚的对手,和随时葬身其中的龙卷风,乔和比尔如何实现自己的追风梦想?

◎获奖情况

  第69届奥斯卡金像奖(1997)
  最佳视觉效果(提名) Habib Zargarpour / 斯蒂芬·范米尔 / 约翰·弗雷泽 / 亨利·拉伯塔
  最佳音响(提名) 格雷格·兰达克 / 凯文·奥康奈尔 / 杰弗里·帕特森 / 史蒂夫·马斯洛
Video
ID : 1
Format : AVC
Format/Info : Advanced Video Codec
Format profile : [email protected]
Format settings : CABAC / 5 Ref Frames
Format settings, CABAC : Yes
Format settings, Reference frames : 5 frames
Codec ID : V_MPEG4/ISO/AVC
Duration : 1 h 53 min
Bit rate : 11.5 Mb/s
Width : 1 920 pixels
Height : 794 pixels
Display aspect ratio : 2.40:1
Frame rate mode : Constant
Frame rate : 23.976 (24000/1001/189150) FPS
Color space : YUV
Chroma subsampling : 4:2:0
Bit depth : 8 bits
Scan type : Progressive
Bits/(Pixel*Frame) : 0.315
Stream size : 8.88 GiB (86%)
Writing library : x264 core 119 r2106 07efeb4
Encoding settings : cabac=1 / ref=5 / deblock=1:-3:-3 / analyse=0x3:0x133 / me=umh / subme=11 / psy=1 / psy_rd=1.10:0.00 / mixed_ref=1 / me_range=48 / chroma_me=1 / trellis=2 / 8x8dct=1 / cqm=0 / deadzone=21,11 / fast_pskip=0 / chroma_qp_offset=-2 / threads=6 / sliced_threads=0 / nr=0 / decimate=0 / interlaced=0 / bluray_compat=0 / constrained_intra=0 / bframes=7 / b_pyramid=2 / b_adapt=2 / b_bias=0 / direct=3 / weightb=1 / open_gop=0 / weightp=2 / keyint=250 / keyint_min=23 / scenecut=40 / intra_refresh=0 / rc=2pass / mbtree=0 / bitrate=11500 / ratetol=1.0 / qcomp=0.60 / qpmin=0 / qpmax=69 / qpstep=4 / cplxblur=20.0 / qblur=0.5 / ip_ratio=1.40 / pb_ratio=1.30 / aq=2:1.00
Language : English
Default : Yes
Forced : No
Color range : Limited
Color primaries : BT.709
Transfer characteristics : BT.709
Matrix coefficients : BT.709

Audio
ID : 2
Format : DTS
Format/Info : Digital Theater Systems
Codec ID : A_DTS
Duration : 1 h 53 min
Bit rate mode : Constant
Bit rate : 1 509 kb/s
Channel(s) : 6 channels
Channel layout : C L R Ls Rs LFE
Sampling rate : 48.0 kHz
Frame rate : 93.750 FPS (512 SPF)
Bit depth : 16 bits
Compression mode : Lossy
Stream size : 1.19 GiB (12%)
Language : English
Default : Yes
Forced : No

Text #1
ID : 3
Format : UTF-8
Codec ID : S_TEXT/UTF8
Codec ID/Info : UTF-8 Plain Text
Language : English
Default : No
Forced : No

Text #2
ID : 4
Format : UTF-8
Codec ID : S_TEXT/UTF8
Codec ID/Info : UTF-8 Plain Text
Title : SDH
Language : English
Default : No
Forced : No

Menu
00:00:00.000 : en:01. 1960 Prologue
00:04:46.620 : en:02. A Long Day Ahead
00:05:43.009 : en:03. One More Signature
00:12:47.433 : en:04. Dorothy
00:15:47.947 : en:05. Tagging Along
00:18:54.800 : en:06. Corporate Kissbutt
00:21:09.602 : en:07. Storm Chaser Medley
00:26:43.268 : en:08. Getting Better at This
00:29:03.075 : en:09. Intercept Course...in a Rut
00:31:44.736 : en:10. Braced for Action
00:33:25.837 : en:11. "Where's My Truck?"
00:35:56.988 : en:12. Battle Zone
00:41:34.826 : en:13. Cow in the Core
00:45:09.373 : en:14. Tall Tales of the Extreme
00:49:34.471 : en:15. Like Old Times
00:53:08.352 : en:16. Rabbit Tracks
00:56:37.561 : en:17. The Fun Part
00:59:06.710 : en:18. In Harm's Way
01:02:12.896 : en:19. In Front of Jo and...
01:05:15.745 : en:20. The Shining - and the...
01:11:29.285 : en:21. Helter Skelter Shelter
01:15:13.008 : en:22. "I Can't Compete with..."
01:18:15.190 : en:23. Rescuing Meg
01:22:45.627 : en:24. What Jo Does
01:24:33.902 : en:25. Making Dorothy Fly
01:27:53.435 : en:26. Out on a Limb
01:30:09.571 : en:27. Heavy Traffic
01:31:19.641 : en:28. Right at Jonas
01:34:32.000 : en:29. Dodging Deadly Debris
01:36:14.936 : en:30. Launch Complete
01:38:50.424 : en:31. Had a Farm
01:41:08.896 : en:32. Hang On!
01:43:28.702 : en:33. Seen Enough Sky
01:45:37.665 : en:34. Landscape / End Credits





1 个附件 售价 大小 下载 时间

Twister.1996.1080p.BluRay.x264.DTS-FGT.torrent 0 金币 51.94K 945 次 2天前

#1楼
发帖时间:2020-06-30 23:16:44   |   回复数:3
jokingcheung
一代宗师
谢谢分享
2天前 #2楼
yangbo83222179
一代宗师
谢谢楼主分享
2天前 #3楼
911degrees
隐世仙人♂
非常感谢,谢谢分享
2天前 #4楼
游客组