coor
一代宗师

[2011] [欧美] [剧情] [BD-1080P] 至暗之时/世纪末光煞 The.Darkest.Hour.2011.1080p.BluRay.x264.DTS-FGT 8.74GB

-->



◎译  名 至暗之时 / 世纪末光煞(港) / 最黑暗的小时 / 最黑暗的时刻 / 黑暗時刻(台)
◎片  名 The Darkest Hour
◎年  代 2011
◎产  地 美国
◎类  别 剧情 / 动作 / 科幻 / 惊悚
◎语  言 英语 / 俄语
◎上映日期 2011-12-25(美国)
◎IMDb评分 4.9/10 from 56838 users
◎IMDb链接 https://www.imdb.com/title/tt1093357
◎豆瓣评分 5.4/10 from 8061 users
◎豆瓣链接 https://movie.douban.com/subject/3401684/
◎片  长 89分钟
◎导  演 Chris Gorak
◎编  剧 乔·斯派茨 Jon Spaihts / 莱斯利·博希姆 Leslie Bohem / M.T. Ahern
◎主  演 埃米尔·赫斯基 Emile Hirsch
      奥莉薇·瑟尔比 Olivia Thirlby
      麦克思·明格拉 Max Minghella
      瑞切尔·泰勒 Rachael Taylor
      乔尔·金纳曼 Joel Kinnaman
      维诺妮卡·奥泽尔娃 Veronika Ozerova
      尤里·库琴科 Yuriy Kutsenko
      彼得·费奥多罗夫 Pyotr Fyodorov
      Dato Bakhtadze
      Nikolay Efremov
      Georgiy Gromov
      Artur Smolyaninov
      Anna Rudakova
      Ivan Gromov
      Aleksandr Chernykh


◎标  签 科幻 | 美国 | 外星人 | 惊悚 | 2011 | 美国电影 | 灾难 | 电影

◎简  介

  西恩(埃米尔·赫斯基 Emile Hirsch 饰)和本(麦克思·明格拉 Max Minghella 饰)是两个来自美国软件工程师,因为新开发了一款软件,跑去莫斯科谈生意,晚上去酒吧找乐,遇到从美国跑来旅游的娜塔莉(奥莉薇·瑟尔比 Olivia Thirlby 饰)和安(瑞切尔·泰勒 Rachael Taylor 饰),四个人调情玩乐,却遇上天降白光,大地浩劫,原来是以能量场形态出现的外星人入侵莫斯科,碰触的瞬间就能让任何生命体灰飞烟灭。四个美国年轻人及时藏身,夜晚来临后试图逃出一片涂炭的红场,他们发现电可以感应外星人存在,又找到一位在家里布上电磁阵的极客老头。大家齐心协力,试图找到所有幸存者,利用电磁学知识,对外星人反戈一击……
Video
ID : 1
Format : AVC
Format/Info : Advanced Video Codec
Format profile : [email protected]
Format settings : CABAC / 5 Ref Frames
Format settings, CABAC : Yes
Format settings, Reference frames : 5 frames
Codec ID : V_MPEG4/ISO/AVC
Duration : 1 h 28 min
Bit rate : 12.6 Mb/s
Width : 1 920 pixels
Height : 800 pixels
Display aspect ratio : 2.40:1
Frame rate mode : Constant
Frame rate : 23.976 FPS
Color space : YUV
Chroma subsampling : 4:2:0
Bit depth : 8 bits
Scan type : Progressive
Bits/(Pixel*Frame) : 0.341
Stream size : 7.63 GiB (87%)
Writing library : x264 core 122 r2184 5c85e0a
Encoding settings : cabac=1 / ref=5 / deblock=1:-3:-3 / analyse=0x3:0x113 / me=umh / subme=10 / psy=1 / psy_rd=1.10:0.00 / mixed_ref=1 / me_range=32 / chroma_me=1 / trellis=2 / 8x8dct=1 / cqm=0 / deadzone=21,11 / fast_pskip=0 / chroma_qp_offset=-4 / threads=18 / sliced_threads=0 / nr=0 / decimate=0 / interlaced=0 / bluray_compat=0 / constrained_intra=0 / bframes=8 / b_pyramid=2 / b_adapt=2 / b_bias=0 / direct=3 / weightb=1 / open_gop=0 / weightp=2 / keyint=250 / keyint_min=23 / scenecut=40 / intra_refresh=0 / rc_lookahead=48 / rc=2pass / mbtree=1 / bitrate=12566 / ratetol=1.0 / qcomp=0.60 / qpmin=0 / qpmax=69 / qpstep=4 / cplxblur=20.0 / qblur=0.5 / ip_ratio=1.40 / aq=1:0.80
Language : English
Default : Yes
Forced : No

Audio
ID : 2
Format : DTS
Format/Info : Digital Theater Systems
Codec ID : A_DTS
Duration : 1 h 28 min
Bit rate mode : Constant
Bit rate : 1 509 kb/s
Channel(s) : 6 channels
Channel layout : C L R Ls Rs LFE
Sampling rate : 48.0 kHz
Frame rate : 93.750 FPS (512 SPF)
Bit depth : 24 bits
Compression mode : Lossy
Stream size : 960 MiB (11%)
Language : English
Default : Yes
Forced : No

Text
ID : 3
Format : UTF-8
Codec ID : S_TEXT/UTF8
Codec ID/Info : UTF-8 Plain Text
Language : English
Default : No
Forced : No

Menu
00:00:00.000 : en:Chapter 01
00:04:33.438 : en:Chapter 02
00:08:06.276 : en:Chapter 03
00:13:27.431 : en:Chapter 04
00:19:10.566 : en:Chapter 05
00:22:25.969 : en:Chapter 06
00:28:52.020 : en:Chapter 07
00:32:46.506 : en:Chapter 08
00:38:33.476 : en:Chapter 09
00:43:33.277 : en:Chapter 10
00:47:28.387 : en:Chapter 11
00:51:05.353 : en:Chapter 12
00:56:38.561 : en:Chapter 13
01:03:10.369 : en:Chapter 14
01:06:27.775 : en:Chapter 15
01:12:04.028 : en:Chapter 16
01:18:10.143 : en:Chapter 17
01:22:43.291 : en:Chapter 18
01:28:58.082 : en:Chapter 19





1 个附件 售价 大小 下载 时间

The.Darkest.Hour.2011.1080p.BluRay.x264.DTS-FGT.torrent 0 金币 87.98K 364 次 2天前

#1楼
发帖时间:2020-06-30 23:18:42   |   回复数:1
911degrees
隐世仙人♂
非常感谢,谢谢分享
2天前 #2楼
游客组