q3r3
武林高手

[更 早] [欧美] [喜剧] [BD-1080P] 红男绿女 Guys.and.Dolls.1955.1080p.BluRay.x264-PSYCHD 10.94GB

-->

帖子完整标题:红男绿女 Guys.and.Dolls.1955.1080p.BluRay.x264-PSYCHD 10.94GB



◎译  名 红男绿女
◎片  名 Guys and Dolls
◎年  代 1955
◎产  地 美国
◎类  别 喜剧 / 爱情 / 歌舞
◎语  言 英语
◎上映日期 1955-11-03
◎IMDb评分 7.2/10 from 15036 users
◎IMDb链接 https://www.imdb.com/title/tt0048140
◎豆瓣评分 7.3/10 from 630 users
◎豆瓣链接 https://movie.douban.com/subject/1295212/
◎片  长 150 分钟
◎导  演 约瑟夫·L·曼凯维奇 Joseph L. Mankiewicz
◎编  剧 Abe Burrows / Ben Hecht / Damon Runyon
◎主  演 马龙·白兰度 Marlon Brando
      简·西蒙斯 Jean Simmons
      法兰克·辛纳屈 Frank Sinatra


◎标  签 美国 | 歌舞 | 歌舞片 | MarlonBrando | 音乐剧 | 美国电影 | 1950s | 爱情

◎简  介

  影片《红男绿女》取材于大卡司加上流行爱情故事,再加上好莱坞音乐的排场以及马龙·白兰度、弗兰克·西纳特拉、琼·西蒙斯的精彩表演,使得该片成为当时最受欢迎的喜剧片。获第29届奥斯卡最佳艺术指导、最佳摄影、最佳服装设计、最佳音乐四项提名!
  在纽约,马龙·白兰度和弗兰克·西纳特拉饰演的帮派分子打赌:如果马龙·白兰度能和简·西蒙斯饰演的女救世军一起到哈瓦那,那么马龙·白兰度就能赢得一笔报酬。白兰度知道弗兰克·西纳特拉不一定付得起那笔钱,但是不愿服输的马龙·白兰度还是试了一试……

◎获奖情况

  第28届奥斯卡金像奖(1956)
  彩色片最佳摄影(提名) Harry Stradling Sr.
  彩色片最佳艺术指导和布景(提名) Oliver Smith / Joseph C. Wright / 霍华德·布里斯托尔
  彩色片最佳服装设计(提名) 艾琳·沙拉夫
  歌舞片最佳配乐(提名) Jay Blackton / 塞里尔·J.莫克里奇

  第13届金球奖(1956)
  电影类 最佳音乐/喜剧片
  电影类 音乐/喜剧片最佳女主角 简·西蒙斯

Video
ID : 1
Format : AVC
Format/Info : Advanced Video Codec
Format profile : [email protected]
Format settings : CABAC / 5 Ref Frames
Format settings, CABAC : Yes
Format settings, Reference frames : 5 frames
Codec ID : V_MPEG4/ISO/AVC
Duration : 2 h 29 min
Bit rate : 8 962 kb/s
Width : 1 920 pixels
Height : 752 pixels
Display aspect ratio : 2.553
Frame rate mode : Constant
Frame rate : 23.976 (24000/1001/189150) FPS
Color space : YUV
Chroma subsampling : 4:2:0
Bit depth : 8 bits
Scan type : Progressive
Bits/(Pixel*Frame) : 0.259
Stream size : 9.14 GiB (84%)
Writing library : x264 core 128 r2216 198a7ea
Encoding settings : cabac=1 / ref=5 / deblock=1:0:0 / analyse=0x3:0x113 / me=umh / subme=8 / psy=1 / psy_rd=1.00:0.00 / mixed_ref=1 / me_range=16 / chroma_me=1 / trellis=1 / 8x8dct=1 / cqm=0 / deadzone=21,11 / fast_pskip=1 / chroma_qp_offset=-2 / threads=12 / lookahead_threads=2 / sliced_threads=0 / nr=0 / decimate=1 / interlaced=0 / bluray_compat=0 / constrained_intra=0 / bframes=3 / b_pyramid=2 / b_adapt=2 / b_bias=0 / direct=3 / weightb=1 / open_gop=0 / weightp=2 / keyint=240 / keyint_min=24 / scenecut=40 / intra_refresh=0 / rc_lookahead=50 / rc=2pass / mbtree=1 / bitrate=8962 / ratetol=1.0 / qcomp=0.60 / qpmin=0 / qpmax=69 / qpstep=4 / cplxblur=20.0 / qblur=0.5 / ip_ratio=1.40 / aq=1:1.00
Language : English
Default : Yes
Forced : No

Audio
ID : 2
Format : DTS
Format/Info : Digital Theater Systems
Codec ID : A_DTS
Duration : 2 h 29 min
Bit rate mode : Constant
Bit rate : 1 509 kb/s
Channel(s) : 6 channels
Channel layout : C L R Ls Rs LFE
Sampling rate : 48.0 kHz
Frame rate : 93.750 FPS (512 SPF)
Bit depth : 24 bits
Compression mode : Lossy
Stream size : 1.58 GiB (14%)
Language : English
Default : Yes
Forced : No

Text
ID : 3
Format : UTF-8
Codec ID : S_TEXT/UTF8
Codec ID/Info : UTF-8 Plain Text
Language : English
Default : No
Forced : No

Menu
00:00:00.000 : en:00:00:00.000
00:09:53.885 : en:00:09:53.885
00:22:26.595 : en:00:22:26.595
00:28:46.433 : en:00:28:46.433
00:43:27.605 : en:00:43:27.605
00:52:58.342 : en:00:52:58.342
00:59:11.631 : en:00:59:11.631
01:12:45.027 : en:01:12:45.027
01:21:54.535 : en:01:21:54.535
01:30:29.174 : en:01:30:29.174
01:44:10.244 : en:01:44:10.244
01:51:34.187 : en:01:51:34.187
02:01:38.583 : en:02:01:38.583
02:13:44.350 : en:02:13:44.350
02:21:17.386 : en:02:21:17.386
02:28:40.453 : en:02:28:40.453





1 个附件 售价 大小 下载 时间

Guys.and.Dolls.1955.1080p.BluRay.x264-PSYCHD.zip 0 金币 56.14K 315 次 3天前

#1楼
发帖时间:2020-08-01 15:49:59   |   回复数:1
911degrees
隐世仙人♂
非常感谢,谢谢分享
3天前 #2楼
游客组