travismk
一代宗师

[更 早] [其他] [动作] [4K-原盘] 疯狂的麦克斯/冲锋追魂手 Mad.Max.1979.2160p.BluRay.REMUX.HEVC.DTS-HD.MA.5.1-FGT 58.18GB

-->

帖子完整标题:疯狂的麦克斯/冲锋追魂手 Mad.Max.1979.2160p.BluRay.REMUX.HEVC.DTS-HD.MA.5.1-FGT 58.18GB



◎译  名 疯狂的麦克斯/冲锋追魂手/冲锋飞车队/疯狂麦克斯/迷雾追魂手(台)/霹雳神探怒扫飞车党(港)
◎片  名 Mad Max
◎年  代 1979
◎产  地 澳大利亚
◎类  别 动作 / 科幻 / 惊悚 / 冒险
◎语  言 英语
◎上映日期 1979-04-12(澳大利亚)
◎IMDb评分 6.9/10 from 189569 users
◎IMDb链接 https://www.imdb.com/title/tt0079501/
◎豆瓣评分 6.3/10 from 15645 users
◎豆瓣链接 https://movie.douban.com/subject/1295670/
◎片  长 93分钟
◎导  演 乔治·米勒 George Miller
◎编  剧 乔治·米勒 George Miller / 拜伦·肯尼迪 Byron Kennedy / 詹姆斯·麦考斯兰 James McCausland
◎主  演 梅尔·吉布森 Mel Gibson
      休·基斯-拜恩 Hugh Keays-Byrne
      雷格·埃文斯 Reg Evans
      史提夫·比斯利 Steve Bisley
      贝特朗·卡达尔 Bertrand Cadart
      希拉·弗洛兰斯 Sheila Florance
      乔纳森·哈迪 Jonathan Hardy
      尼克·拉图里 Nick Lathouris
      史蒂夫·米利钱普 Steve Millichamp
      吉尔·塔克 Gil Tucker
      琼妮·萨缪尔 Joanne Samuel

◎标  签 动作 | 澳大利亚 | 公路 | 科幻 | 公路电影 | 梅尔·吉布森 | 1979 | 犯罪

◎简  介

  在不远的未来,公路骑士们在道路上肆虐,所过之处留下疯狂破坏的痕迹。为了追逐盗取了警用车的“黑暗骑士”,警方付出了重大代价,幸有比骑士更加疯狂的麦克斯(梅尔·吉布森 Mel Gibson 饰)出场,迫使黑暗骑士车祸身亡。黑暗骑士的同伙们发誓报仇,他们降临小镇,要接回黑暗骑士的尸身,并且肆意凌虐弱者,麦克斯和搭档古斯(Steve Bisley 饰)抓获凶手后,却因为无人敢指认,只得容忍他们继续逍遥法外。古斯被公路骑士们抓到,身负重伤,而麦克斯的妻子杰西(琼妮·萨缪尔 Joanne Samuel 饰)也被他们恐吓骚扰,有“疯狂”之称的麦克斯不再隐忍,向骑士们展开回击……

Video
ID : 1
ID in the original source medium : 4113 (0x1011)
Format : HEVC
Format/Info : High Efficiency Video Coding
Format profile : Main [email protected]@High
HDR format : SMPTE ST 2086, HDR10 compatible
Codec ID : V_MPEGH/ISO/HEVC
Duration : 1 h 33 min
Bit rate : 79.5 Mb/s
Width : 3 840 pixels
Height : 2 160 pixels
Display aspect ratio : 16:9
Frame rate mode : Constant
Frame rate : 23.976 (24000/1001/189150) FPS
Color space : YUV
Chroma subsampling : 4:2:0 (Type 2)
Bit depth : 10 bits
Bits/(Pixel*Frame) : 0.400
Stream size : 51.7 GiB (89%)
Title : Mad.Max.1979.2160p.BluRay.REMUX.HEVC.DTS-HD.MA.5.1-FGT
Language : English
Default : No
Forced : No
Color range : Limited
Color primaries : BT.2020
Transfer characteristics : PQ
Matrix coefficients : BT.2020 non-constant
Mastering display color primaries : Display P3
Mastering display luminance : min: 0.0001 cd/m2, max: 1000 cd/m2
Original source medium : Blu-ray

Audio #1
ID : 2
ID in the original source medium : 4352 (0x1100)
Format : DTS XLL
Format/Info : Digital Theater Systems
Commercial name : DTS-HD Master Audio
Codec ID : A_DTS
Duration : 1 h 33 min
Bit rate mode : Variable
Bit rate : 4 000 kb/s
Channel(s) : 6 channels
Channel layout : C L R Ls Rs LFE
Sampling rate : 48.0 kHz
Frame rate : 93.750 FPS (512 SPF)
Bit depth : 24 bits
Compression mode : Lossless
Stream size : 2.60 GiB (4%)
Title : Mad.Max.1979.2160p.BluRay.REMUX.HEVC.DTS-HD.MA.5.1-FGT
Language : English
Default : Yes
Forced : No
Original source medium : Blu-ray

Audio #2
ID : 3
ID in the original source medium : 4353 (0x1101)
Format : DTS XLL
Format/Info : Digital Theater Systems
Commercial name : DTS-HD Master Audio
Codec ID : A_DTS
Duration : 1 h 33 min
Bit rate mode : Variable
Bit rate : 1 862 kb/s
Channel(s) : 2 channels
Channel layout : L R
Sampling rate : 48.0 kHz
Frame rate : 93.750 FPS (512 SPF)
Bit depth : 24 bits
Compression mode : Lossless
Stream size : 1.21 GiB (2%)
Title : Mad.Max.1979.2160p.BluRay.REMUX.HEVC.DTS-HD.MA.5.1-FGT
Language : English
Default : No
Forced : No
Original source medium : Blu-ray

Audio #3
ID : 4
ID in the original source medium : 4354 (0x1102)
Format : DTS XLL
Format/Info : Digital Theater Systems
Commercial name : DTS-HD Master Audio
Codec ID : A_DTS
Duration : 1 h 33 min
Bit rate mode : Variable
Bit rate : 1 918 kb/s
Channel(s) : 2 channels
Channel layout : L R
Sampling rate : 48.0 kHz
Frame rate : 93.750 FPS (512 SPF)
Bit depth : 24 bits
Compression mode : Lossless
Stream size : 1.25 GiB (2%)
Title : Mad.Max.1979.2160p.BluRay.REMUX.HEVC.DTS-HD.MA.5.1-FGT
Language : English
Default : No
Forced : No
Original source medium : Blu-ray

Audio #4
ID : 5
ID in the original source medium : 4355 (0x1103)
Format : DTS XLL
Format/Info : Digital Theater Systems
Commercial name : DTS-HD Master Audio
Codec ID : A_DTS
Duration : 1 h 33 min
Bit rate mode : Variable
Bit rate : 2 100 kb/s
Channel(s) : 2 channels
Channel layout : L R
Sampling rate : 48.0 kHz
Frame rate : 93.750 FPS (512 SPF)
Bit depth : 24 bits
Compression mode : Lossless
Stream size : 1.37 GiB (2%)
Title : Stereo
Language : English
Default : No
Forced : No
Original source medium : Blu-ray

Text #1
ID : 6
Format : UTF-8
Codec ID : S_TEXT/UTF8
Codec ID/Info : UTF-8 Plain Text
Duration : 1 h 29 min
Bit rate : 36 b/s
Count of elements : 847
Stream size : 24.0 KiB (0%)
Title : English-SRT
Language : English
Default : Yes
Forced : No

Text #2
ID : 7
ID in the original source medium : 4768 (0x12A0)
Format : PGS
Muxing mode : zlib
Codec ID : S_HDMV/PGS
Codec ID/Info : Picture based subtitle format used on BDs/HD-DVDs
Duration : 1 h 29 min
Bit rate : 21.1 kb/s
Count of elements : 1710
Stream size : 13.5 MiB (0%)
Title : English-PGS
Language : English
Default : No
Forced : No
Original source medium : Blu-ray

Menu
00:00:00.000 : en:Chapter 01
00:07:00.169 : en:Chapter 02
00:15:39.229 : en:Chapter 03
00:23:36.706 : en:Chapter 04
00:31:48.907 : en:Chapter 05
00:39:00.338 : en:Chapter 06
00:47:02.236 : en:Chapter 07
00:55:43.340 : en:Chapter 08
01:02:12.729 : en:Chapter 09
01:15:32.528 : en:Chapter 10
01:30:48.443 : en:Chapter 11





1 个附件 售价 大小 下载 时间

Mad.Max.1979.2160p.BluRay.REMUX.HEVC.DTS-HD.MA.5.1-FGT.zip 0 金币 146.14K 168 次 8天前

#1楼
发帖时间:2020-11-21 21:51:14   |   回复数:1
liyouchai
隐世仙人♂
谢谢楼主分享资源
8天前 #2楼
游客组