travismk
一代宗师

[2020] [其他] [恐怖] [WEB-1080P] 无眠美人 Sleepless.Beauty.2020.DUBBED.1080p.AMZN.WEBRip.DDP5.1.x264-WORM 6.70GB

-->

帖子完整标题:无眠美人 Sleepless.Beauty.2020.DUBBED.1080p.AMZN.WEBRip.DDP5.1.x264-WORM 6.70GB



◎译  名 无眠美人/Sleepless Beauty
◎片  名 Ya ne splyu
◎年  代 2020
◎产  地 俄罗斯
◎类  别 恐怖
◎语  言 俄语
◎上映日期 2020-06-29(波兰) / 2020-09-06(荷兰想象电影节)
◎IMDb评分 5.3/10 from 92 users
◎IMDb链接 https://www.imdb.com/title/tt10066432/
◎豆瓣评分 /10 from 0 users
◎豆瓣链接 https://movie.douban.com/subject/34960095/

◎标  签 惊悚 | 恐怖 | 变蛋坏蛋蠢蛋 | 【俄罗斯】 | 2020s | 2020

◎简  介

  A young girl named Mila doesn't notice that she is under surveillance 24/7. As she comes home one day, she's being kidnapped. The unknown abductors keep her in an old garage, talk to her through a loudspeaker and set strict rules: she must not sleep but has to fulfill weird tasks that they've prepared for her. It all looks like someone's sick ideas and gloomy entertainment. Still, the girl doesn't suspect that she's part of a ruthless experiment.

Video
ID : 1
Format : AVC
Format/Info : Advanced Video Codec
Format profile : [email protected]
Format settings : CABAC / 4 Ref Frames
Format settings, CABAC : Yes
Format settings, Reference frames : 4 frames
Codec ID : V_MPEG4/ISO/AVC
Duration : 1 h 23 min
Bit rate : 10.8 Mb/s
Width : 1 920 pixels
Height : 800 pixels
Display aspect ratio : 2.40:1
Frame rate mode : Constant
Frame rate : 23.976 (24000/1001/189150) FPS
Color space : YUV
Chroma subsampling : 4:2:0
Bit depth : 8 bits
Scan type : Progressive
Bits/(Pixel*Frame) : 0.293
Stream size : 6.33 GiB (94%)
Default : Yes
Forced : No
Color range : Limited
Color primaries : BT.709
Transfer characteristics : BT.709
Matrix coefficients : BT.709

Audio
ID : 2
Format : E-AC-3
Format/Info : Enhanced AC-3
Commercial name : Dolby Digital Plus
Codec ID : A_EAC3
Duration : 1 h 23 min
Bit rate mode : Constant
Bit rate : 640 kb/s
Channel(s) : 6 channels
Channel layout : L R C LFE Ls Rs
Sampling rate : 48.0 kHz
Frame rate : 31.250 FPS (1536 SPF)
Compression mode : Lossy
Stream size : 384 MiB (6%)
Title : English
Language : English
Service kind : Complete Main
Default : No
Forced : No

Text
ID : 3
Format : UTF-8
Codec ID : S_TEXT/UTF8
Codec ID/Info : UTF-8 Plain Text
Duration : 1 h 20 min
Bit rate : 33 b/s
Count of elements : 680
Stream size : 19.5 KiB (0%)
Title : English (SDH)
Language : English
Default : No
Forced : No





1 个附件 售价 大小 下载 时间

Sleepless.Beauty.2020.DUBBED.1080p.AMZN.WEBRip.DDP5.1.x264-WORM.zip 0 金币 34.22K 399 次 11天前

#1楼
发帖时间:2021-02-23 20:55:05   |   回复数:2
tokyoal
武林盟主
谢谢分享
11天前 #2楼
liyouchai
隐世仙人♂
谢谢楼主分享资源
11天前 #3楼
游客组