travismk
一代宗师

[更 早] [欧美] [喜剧] [WEB-1080P] 为舞而生 Born.to.Dance.1936.1080p.AMZN.WEBRip.DDP2.0.x264-SbR 10.55GB

-->

帖子完整标题:为舞而生 Born.to.Dance.1936.1080p.AMZN.WEBRip.DDP2.0.x264-SbR 10.55GB



◎译  名 为舞而生
◎片  名 Born to Dance
◎年  代 1936
◎产  地 美国
◎类  别 喜剧 / 歌舞
◎语  言 英语
◎上映日期 1936-11-27
◎IMDb评分 6.7/10 from 1456 users
◎IMDb链接 https://www.imdb.com/title/tt0027387/
◎豆瓣评分 7.3/10 from 66 users
◎豆瓣链接 https://movie.douban.com/subject/3163403/
◎片  长 106 分钟
◎导  演 罗伊·德尔·鲁斯 Roy Del Ruth
◎编  剧 西德·西尔弗斯 Sid Silvers / Jack McGowan / 巴迪·G·德席尔瓦 Buddy G. DeSylva
◎主  演 埃利诺·鲍威尔 Eleanor Powell
      詹姆斯·斯图尔特 James Stewart
      约翰·凯利 John Kelly
      Douglas McPhail
      Sherry Hall
      雷金纳德·加德纳 Reginald Gardiner
      Shep Houghton
      Wally Maher
      杰伊·约翰逊 Jay Johnson
      Barnett Parker
      Franklin Parker
      博比·沃森 Bobby Watson
      查尔斯·特罗布里奇 Charles Trowbridge
      约翰·泰瑞尔 John Tyrrell
      Harry Strang
      Helen Troy
      Gus Reed
      Juanita Quigley
      Wesley Giraud
      David Horsley
      埃迪·康斯坦丁 Eddie Constantine
      尤娜·默克尔 Una Merkel
      弗朗西斯·兰福德 Frances Langford
      弗吉尼亚·布鲁斯 Virginia Bruce
      西德·西尔弗斯 Sid Silvers
      丹尼斯·欧基夫 Dennis O'Keefe
      乔纳森·哈勒 Jonathan Hale
      雷蒙德·沃伯恩 Raymond Walburn
      Peter Gowland
      Otto Fries
      Mary Dees
      詹姆斯·弗莱文 James Flavin
      查尔斯·科尔曼 Charles Coleman
      Charles Bennett
      芭芭拉·贝德福德 Barbara Bedford
      Alan Dinehart
      巴迪·艾布森 Buddy Ebsen

◎标  签 JamesStewart | 歌舞 | 美国 | 1930s | 喜剧 | 黑白 | 音乐片 | 美國

◎简  介

  暂无相关剧情介绍

◎获奖情况

  第9届奥斯卡金像奖 ?(1937)
  最佳原创歌曲(提名) 科尔·波特
  最佳舞蹈指导(提名) 戴夫·戈尔德

Video
ID : 1
Format : AVC
Format/Info : Advanced Video Codec
Format profile : [email protected]
Format settings : CABAC / 4 Ref Frames
Format settings, CABAC : Yes
Format settings, Reference frames : 4 frames
Codec ID : V_MPEG4/ISO/AVC
Duration : 1 h 45 min
Bit rate mode : Variable
Bit rate : 14.1 Mb/s
Maximum bit rate : 15.0 Mb/s
Width : 1 440 pixels
Height : 1 080 pixels
Display aspect ratio : 1.370
Frame rate mode : Constant
Frame rate : 23.976 (24000/1001/189150) FPS
Color space : YUV
Chroma subsampling : 4:2:0
Bit depth : 8 bits
Scan type : Progressive
Bits/(Pixel*Frame) : 0.378
Stream size : 10.4 GiB (98%)
Language : English
Default : Yes
Forced : No
Color range : Limited
Color primaries : BT.709
Transfer characteristics : BT.709
Matrix coefficients : BT.709

Audio
ID : 2
Format : E-AC-3
Format/Info : Enhanced AC-3
Commercial name : Dolby Digital Plus
Codec ID : A_EAC3
Duration : 1 h 45 min
Bit rate mode : Constant
Bit rate : 224 kb/s
Channel(s) : 2 channels
Channel layout : L R
Sampling rate : 48.0 kHz
Frame rate : 31.250 FPS (1536 SPF)
Compression mode : Lossy
Stream size : 169 MiB (2%)
Language : English
Service kind : Complete Main
Default : Yes
Forced : No

Text #1
ID : 3
Format : UTF-8
Codec ID : S_TEXT/UTF8
Codec ID/Info : UTF-8 Plain Text
Duration : 1 h 43 min
Bit rate : 70 b/s
Count of elements : 1450
Stream size : 53.5 KiB (0%)
Language : English
Default : No
Forced : No

Text #2
ID : 4
Format : UTF-8
Codec ID : S_TEXT/UTF8
Codec ID/Info : UTF-8 Plain Text
Duration : 1 h 44 min
Bit rate : 72 b/s
Count of elements : 1457
Stream size : 55.0 KiB (0%)
Title : SDH
Language : English
Default : No
Forced : No

Menu
00:00:00.083 : en:01. Credits
00:01:35.053 : en:02. Rolling Home
00:05:31.623 : en:03. Rear Admiral\'s Location
00:07:32.869 : en:04. Lonely Hearts Club
00:10:32.507 : en:05. Rap-Tap on Wood
00:14:13.603 : en:06. Surprise Reunion
00:17:19.497 : en:07. Boy Meets Girl
00:20:56.088 : en:08. Hey, Babe, Hey
00:27:13.590 : en:09. Two for the Brig
00:29:30.143 : en:10. Designs for Married Living
00:35:39.137 : en:11. Entrance of Lucy James
00:38:35.230 : en:12. Love Me, Love My Pekinese
00:41:38.955 : en:13. Future Plans
00:44:56.402 : en:14. Easy to Love (1)
00:49:14.618 : en:15. Lawful Conduct
00:53:08.227 : en:16. Kiss Her for Me
00:55:12.643 : en:17. I\'ve Got You Under My Skin: Dance
00:59:33.111 : en:18. No Part of Ted Barker
01:02:28.161 : en:19. World\'s Greatest Dancer
01:06:37.327 : en:20. Whose Little Girl?
01:12:32.890 : en:21. Making a Go of Gunny
01:14:03.689 : en:22. Serious about Publicity
01:17:00.908 : en:23. I\'ve Got You Under My Skin: Song
01:19:53.914 : en:24. Easy to Love (2)
01:24:02.621 : en:25. Swingin\' the Jinx Away
01:28:14.873 : en:26. Hot Tip
01:31:20.475 : en:27. Swingin\' the Jinx Away: Langford
01:33:58.424 : en:28. Swingin\' the Jinx Away: Ebsen
01:37:36.934 : en:29. Swingin\' the Jinx Away: Powell
01:44:12.955 : en:30. Finale and Cast List





1 个附件 售价 大小 下载 时间

Born.to.Dance.1936.1080p.AMZN.WEBRip.DDP2.0.x264-SbR.zip 0 金币 53.44K 161 次 1月前

#1楼
发帖时间:2021-02-28 22:01:01   |   回复数:0
游客组