travismk
一代宗师

[更 早] [欧美] [剧情] [WEB-1080P] 香染石榴裙/红颜祸水 Born.to.Be.Bad.1950.1080p.AMZN.WEBRip.DDP2.0.x264-SbR 6.36GB

-->

帖子完整标题:香染石榴裙/红颜祸水 Born.to.Be.Bad.1950.1080p.AMZN.WEBRip.DDP2.0.x264-SbR 6.36GB



◎译  名 香染石榴裙/红颜祸水
◎片  名 Born to Be Bad
◎年  代 1950
◎产  地 美国
◎类  别 剧情 / 黑色电影
◎语  言 英语
◎上映日期 1950-08-27
◎IMDb评分 6.7/10 from 1996 users
◎IMDb链接 https://www.imdb.com/title/tt0042275/
◎豆瓣评分 6.3/10 from 45 users
◎豆瓣链接 https://movie.douban.com/subject/3250744/
◎片  长 94 分钟
◎导  演 尼古拉斯·雷 Nicholas Ray
◎编  剧 查理斯·施内 Charles Schnee / 安妮·帕里什 Anne Parrish / 乔治·奥本海默 George Oppenheimer / 罗伯特·索德伯格 Robert Soderberg
◎主  演 琼·芳登 Joan Fontaine
      罗伯特·瑞安 Robert Ryan
      琼·莱斯利 Joan Leslie
      Sam Lufkin
      Bobby Johnson
      Ray Johnson
      哈罗德·米勒 Harold Miller
      约翰·米彻姆 John Mitchum
      Dick Ryan
      Suzanne Ridgeway
      哈罗德·弗米利娅 Harold Vermilyea
      拉里·斯蒂尔斯 Larry Steers
      Georgiana Wulff
      Al Murphy
      凯瑟琳·霍华德 Kathleen Howard
      山姆·哈里斯 Sam Harris
      扎查瑞·斯考特 Zachary Scott
      戈登·奥利弗 Gordon Oliver
      梅尔·费勒 Mel Ferrer
      欧文·培根 Irving Bacon
      Hazel Boyne
      Jack Chefe
      詹姆斯·科纳蒂 James Conaty
      巴里布鲁克斯 Barry Brooks
      唐·迪拉韦 Don Dillaway
      贝丝·弗劳尔斯 Bess Flowers
      Homer Dickenson
      弗吉尼亚·法莫 Virginia Farmer
      赫伯特·埃文斯 Herbert Evans
      Joy Hallward

◎标  签 美国 | NicholasRay | 1950s | Nicholas_Ray | JoanFontaine | Joan_Fontaine | 1950 | Film_Noir

◎简  介

  Christabel fools everyone with her sweet exterior including her cousin Donna and Donna's wealthy fiancée Curtis. The only one who sees through her facade is Nick, a rugged writer who loves her anyway. Christabel also loves Nick, but she loves Curtis' money more. After convincing Curtis that Donna is only interested in him for his money, she tricks Curtis into marrying her. Of course, she still dallies with Nick on the side.

Video
ID : 1
Format : AVC
Format/Info : Advanced Video Codec
Format profile : [email protected]
Format settings : CABAC / 4 Ref Frames
Format settings, CABAC : Yes
Format settings, Reference frames : 4 frames
Codec ID : V_MPEG4/ISO/AVC
Duration : 1 h 29 min
Bit rate mode : Constant
Bit rate : 10 000 kb/s
Width : 1 440 pixels
Height : 1 080 pixels
Display aspect ratio : 1.370
Frame rate mode : Constant
Frame rate : 23.976 (24000/1001/189150) FPS
Color space : YUV
Chroma subsampling : 4:2:0
Bit depth : 8 bits
Scan type : Progressive
Bits/(Pixel*Frame) : 0.268
Stream size : 6.22 GiB (98%)
Language : English
Default : Yes
Forced : No
Color range : Limited
Color primaries : BT.709
Transfer characteristics : BT.709
Matrix coefficients : BT.709

Audio
ID : 2
Format : E-AC-3
Format/Info : Enhanced AC-3
Commercial name : Dolby Digital Plus
Codec ID : A_EAC3
Duration : 1 h 29 min
Bit rate mode : Constant
Bit rate : 224 kb/s
Channel(s) : 2 channels
Channel layout : L R
Sampling rate : 48.0 kHz
Frame rate : 31.250 FPS (1536 SPF)
Compression mode : Lossy
Stream size : 144 MiB (2%)
Language : English
Service kind : Complete Main
Default : Yes
Forced : No

Text #1
ID : 3
Format : UTF-8
Codec ID : S_TEXT/UTF8
Codec ID/Info : UTF-8 Plain Text
Duration : 1 h 27 min
Bit rate : 83 b/s
Count of elements : 1453
Stream size : 53.4 KiB (0%)
Language : English
Default : No
Forced : No

Text #2
ID : 4
Format : UTF-8
Codec ID : S_TEXT/UTF8
Codec ID/Info : UTF-8 Plain Text
Duration : 1 h 28 min
Bit rate : 83 b/s
Count of elements : 1498
Stream size : 54.3 KiB (0%)
Title : SDH
Language : English
Default : No
Forced : No

Menu
00:00:00.000 : en:Chapter 01
00:01:02.055 : en:Chapter 02
00:02:56.169 : en:Chapter 03
00:04:11.244 : en:Chapter 04
00:06:23.376 : en:Chapter 05
00:09:12.545 : en:Chapter 06
00:12:23.736 : en:Chapter 07
00:16:00.953 : en:Chapter 08
00:18:56.128 : en:Chapter 09
00:23:12.384 : en:Chapter 10
00:25:23.515 : en:Chapter 11
00:28:01.673 : en:Chapter 12
00:30:56.848 : en:Chapter 13
00:33:12.984 : en:Chapter 14
00:37:02.213 : en:Chapter 15
00:40:13.404 : en:Chapter 16
00:41:58.509 : en:Chapter 17
00:45:28.719 : en:Chapter 18
00:47:19.830 : en:Chapter 19
00:51:15.065 : en:Chapter 20
00:55:25.315 : en:Chapter 21
00:59:05.535 : en:Chapter 22
01:00:51.641 : en:Chapter 23
01:05:47.937 : en:Chapter 24
01:08:57.126 : en:Chapter 25
01:11:27.276 : en:Chapter 26
01:13:57.426 : en:Chapter 27
01:17:46.655 : en:Chapter 28
01:21:14.863 : en:Chapter 29
01:24:19.047 : en:Chapter 30
01:27:32.240 : en:Chapter 31
01:29:36.364 : en:Chapter 32





1 个附件 售价 大小 下载 时间

Born.to.Be.Bad.1950.1080p.AMZN.WEBRip.DDP2.0.x264-SbR.zip 0 金币 32.46K 217 次 1月前

#1楼
发帖时间:2021-02-28 22:02:57   |   回复数:0
游客组