travismk
一代宗师

[2013] [欧美] [WEB-1080P] 被外星人绑架者的自白 Confessions.of.an.Alien.Abductee.2013.1080p.WEBRip.x264-RARBG 913.73M

-->

帖子完整标题:被外星人绑架者的自白 Confessions.of.an.Alien.Abductee.2013.1080p.WEBRip.x264-RARBG 913.73MB



◎译  名 被外星人绑架者的自白
◎片  名 Confessions of an Alien Abductee
◎年  代 2013
◎产  地 英国
◎类  别 
◎语  言 英语
◎上映日期 
◎IMDb评分 5.3/10 from 9 users
◎IMDb链接 https://www.imdb.com/title/tt8408382/
◎豆瓣评分 /10 from 0 users
◎豆瓣链接 https://movie.douban.com/subject/24827230/

◎简  介

  本片将镜头对准英国最奇怪的一条电话热线——异常原因操纵的绑架及外星人袭击(AMMACH)求助热线,那些认为自己是外星人袭击受害者的人们可以拨打999来求助。我们将跟踪100位拨打过这个热线的人,包括小镇议员西蒙,他相信除了生活在地球的太太外,他还有一个外星家庭,家庭主妇尚特勒认为自己被外星人绑架了很多次,并希望这样的遭遇可以停止,会计师玛丽认为自己的基因被置换,并已有了部分外星人血统。这些普通人都坚信自己曾经遇到过外星人并拨打了热线电话。他们最希望了解的是为什么这样奇怪的事情会发生在自己身上。

Video
ID : 1
Format : AVC
Format/Info : Advanced Video Codec
Format profile : [email protected]
Format settings : CABAC / 4 Ref Frames
Format settings, CABAC : Yes
Format settings, Reference frames : 4 frames
Codec ID : avc1
Codec ID/Info : Advanced Video Coding
Duration : 46 min 47 s
Bit rate : 2 500 kb/s
Width : 1 920 pixels
Height : 1 080 pixels
Display aspect ratio : 16:9
Frame rate mode : Constant
Frame rate : 25.000 FPS
Color space : YUV
Chroma subsampling : 4:2:0
Bit depth : 8 bits
Scan type : Progressive
Bits/(Pixel*Frame) : 0.048
Stream size : 836 MiB (92%)
Writing library : x264 core 152 r2851M ba24899
Encoding settings : cabac=1 / ref=4 / deblock=1:-1:-1 / analyse=0x3:0x113 / me=umh / subme=9 / psy=1 / psy_rd=1.00:0.15 / mixed_ref=1 / me_range=24 / chroma_me=1 / trellis=2 / 8x8dct=1 / cqm=0 / deadzone=21,11 / fast_pskip=1 / chroma_qp_offset=-3 / threads=16 / lookahead_threads=4 / sliced_threads=0 / nr=0 / decimate=1 / interlaced=0 / bluray_compat=0 / constrained_intra=0 / bframes=3 / b_pyramid=2 / b_adapt=2 / b_bias=0 / direct=3 / weightb=1 / open_gop=0 / weightp=2 / keyint=250 / keyint_min=25 / scenecut=40 / intra_refresh=0 / rc_lookahead=50 / rc=2pass / mbtree=1 / bitrate=2500 / ratetol=1.0 / qcomp=0.60 / qpmin=0 / qpmax=69 / qpstep=4 / cplxblur=20.0 / qblur=0.5 / vbv_maxrate=31250 / vbv_bufsize=31250 / nal_hrd=none / filler=0 / ip_ratio=1.40 / aq=3:1.00
Encoded date : UTC 2021-02-27 20:50:03
Tagged date : UTC 2021-02-27 20:50:03
Codec configuration box : avcC

Audio
ID : 2
Format : AAC LC
Format/Info : Advanced Audio Codec Low Complexity
Codec ID : mp4a-40-2
Duration : 46 min 47 s
Bit rate mode : Constant
Bit rate : 224 kb/s
Channel(s) : 2 channels
Channel layout : L R
Sampling rate : 48.0 kHz
Frame rate : 46.875 FPS (1024 SPF)
Compression mode : Lossy
Stream size : 75.0 MiB (8%)
Language : English
Default : Yes
Alternate group : 1
Encoded date : UTC 2021-02-27 20:50:03
Tagged date : UTC 2021-02-27 20:50:03





1 个附件 售价 大小 下载 时间

Confessions.of.an.Alien.Abductee.2013.1080p.WEBRip.x264-RARBG.zip 0 金币 18.57K 217 次 1月前

#1楼
发帖时间:2021-02-28 22:17:13   |   回复数:0
游客组