travismk
一代宗师

[2020] [其他] [其他] [BD-1080P] 大脚丫家族/大脚丫家族之森林特攻队 Bigfoot.Family.2020.PROPER.1080p.BluRay.x264-RCDiVX 5.18GB

-->

帖子完整标题:大脚丫家族/大脚丫家族之森林特攻队 Bigfoot.Family.2020.PROPER.1080p.BluRay.x264-RCDiVX 5.18GB



◎译  名 大脚丫家族/大脚丫家族之森林特攻队/森林特攻队:大脚丫家族(台)
◎片  名 Bigfoot Family
◎年  代 2020
◎产  地 比利时,法国
◎类  别 动画 / 家庭
◎语  言 法语
◎上映日期 2020-08-05(比利时)
◎IMDb评分 6/10 from 870 users
◎IMDb链接 https://www.imdb.com/title/tt9204164/
◎豆瓣评分 6.2/10 from 84 users
◎豆瓣链接 https://movie.douban.com/subject/35177259/
◎片  长 89分钟
◎导  演 杰里米·德格鲁森 Jeremy Degruson / 本·斯塔森 Ben Stassen
◎编  剧 鲍勃·巴伦 Bob Barlen / 卡尔·布伦克尔 Cal Brunker

◎标  签 动画 | 2020 | 法国 | 比利时 | 喜剧 | 动画电影 | 剧场动画 | 比利时电影

◎简  介

  人类持续破坏环境,是时候动物们该站出来捍卫生存权益…
  
  
  
  看似平凡的亚当,和雪丽(母亲)、大脚怪(父亲)以及他们的朋友伟波(大灰熊)、蒂娜(松鼠)、崔波(浣熊)一家人,这个非凡的大家庭一起在森林里定居。没想到随着大脚怪父亲越来越有名,父亲也利用名气尝试改变世界。某天动保团体与父亲联系,打算一起阻止石油公司开发并污染动物的生存环境,没想到父亲在一次追查真相的过程中竟然莫名失踪了!亚当和他的动物家人们,决定联手找出大脚怪父亲的下落,同时透过社群媒体试图揭发石油公司的邪恶阴谋,他们一家人还有机会再次团聚吗?

Video
ID : 1
Format : AVC
Format/Info : Advanced Video Codec
Format profile : [email protected]
Format settings : CABAC / 5 Ref Frames
Format settings, CABAC : Yes
Format settings, Reference frames : 5 frames
Codec ID : V_MPEG4/ISO/AVC
Duration : 1 h 28 min
Bit rate : 7 969 kb/s
Width : 1 920 pixels
Height : 804 pixels
Display aspect ratio : 2.40:1
Frame rate mode : Constant
Frame rate : 24.000 FPS
Color space : YUV
Chroma subsampling : 4:2:0
Bit depth : 8 bits
Scan type : Progressive
Bits/(Pixel*Frame) : 0.215
Stream size : 4.91 GiB (95%)
Writing library : x264 core 161 r3048 b86ae3c
Encoding settings : cabac=1 / ref=5 / deblock=1:1:1 / analyse=0x3:0x133 / me=umh / subme=9 / psy=1 / psy_rd=0.40:0.00 / mixed_ref=1 / me_range=16 / chroma_me=1 / trellis=2 / 8x8dct=1 / cqm=0 / deadzone=21,11 / fast_pskip=1 / chroma_qp_offset=-2 / threads=25 / lookahead_threads=2 / sliced_threads=0 / nr=0 / decimate=1 / interlaced=0 / bluray_compat=0 / constrained_intra=0 / bframes=5 / b_pyramid=2 / b_adapt=2 / b_bias=0 / direct=3 / weightb=1 / open_gop=0 / weightp=2 / keyint=250 / keyint_min=24 / scenecut=40 / intra_refresh=0 / rc_lookahead=60 / rc=crf / mbtree=1 / crf=16.0 / qcomp=0.60 / qpmin=0 / qpmax=69 / qpstep=4 / ip_ratio=1.40 / aq=1:0.60
Default : Yes
Forced : No

Audio
ID : 2
Format : AC-3
Format/Info : Audio Coding 3
Commercial name : Dolby Digital
Codec ID : A_AC3
Duration : 1 h 28 min
Bit rate mode : Constant
Bit rate : 384 kb/s
Channel(s) : 6 channels
Channel layout : L R C LFE Ls Rs
Sampling rate : 48.0 kHz
Frame rate : 31.250 FPS (1536 SPF)
Compression mode : Lossy
Stream size : 242 MiB (5%)
Language : English
Service kind : Complete Main
Default : Yes
Forced : No

Text #1
ID : 3
Format : PGS
Muxing mode : zlib
Codec ID : S_HDMV/PGS
Codec ID/Info : Picture based subtitle format used on BDs/HD-DVDs
Duration : 1 h 25 min
Bit rate : 21.7 kb/s
Count of elements : 1664
Stream size : 13.4 MiB (0%)
Title : Danish
Language : Danish
Default : No
Forced : No

Text #2
ID : 4
Format : PGS
Muxing mode : zlib
Codec ID : S_HDMV/PGS
Codec ID/Info : Picture based subtitle format used on BDs/HD-DVDs
Duration : 1 h 25 min
Bit rate : 21.2 kb/s
Count of elements : 1664
Stream size : 13.0 MiB (0%)
Title : Norwegian
Language : Norwegian
Default : No
Forced : No

Text #3
ID : 5
Format : PGS
Muxing mode : zlib
Codec ID : S_HDMV/PGS
Codec ID/Info : Picture based subtitle format used on BDs/HD-DVDs
Duration : 1 h 25 min
Bit rate : 23.6 kb/s
Count of elements : 1666
Stream size : 14.5 MiB (0%)
Title : Swedish
Language : Swedish
Default : No
Forced : No

Text #4
ID : 6
Format : PGS
Muxing mode : zlib
Codec ID : S_HDMV/PGS
Codec ID/Info : Picture based subtitle format used on BDs/HD-DVDs
Duration : 1 h 25 min
Bit rate : 22.4 kb/s
Count of elements : 1664
Stream size : 13.8 MiB (0%)
Title : Finnish
Language : Finnish
Default : No
Forced : No

Menu
00:00:00.000 : en:Chapter 01
00:08:12.000 : en:Chapter 02
00:16:33.000 : en:Chapter 03
00:25:06.000 : en:Chapter 04
00:33:56.000 : en:Chapter 05
00:43:06.000 : en:Chapter 06
00:51:01.000 : en:Chapter 07
00:59:57.000 : en:Chapter 08
01:09:10.000 : en:Chapter 09
01:18:20.000 : en:Chapter 10





1 个附件 售价 大小 下载 时间

Bigfoot.Family.2020.PROPER.1080p.BluRay.x264-RCDiVX.zip 0 金币 26.62K 791 次 1月前

#1楼
发帖时间:2021-02-28 22:51:17   |   回复数:1
liyouchai
隐世仙人♂
谢谢楼主分享资源
1月前 #2楼
游客组