travismk
一代宗师

[2020] [其他] [剧情] [WEB-1080P] 卢克索 Luxor.2020.1080p.AMZN.WEBRip.DDP5.1.x264-MRCS 5.77GB

-->

帖子完整标题:卢克索 Luxor.2020.1080p.AMZN.WEBRip.DDP5.1.x264-MRCS 5.77GB



◎译  名 卢克索
◎片  名 Luxor
◎年  代 2020
◎产  地 埃及,英国,阿联酋
◎类  别 剧情 / 爱情
◎语  言 英语,阿拉伯语
◎上映日期 2020-01-27(圣丹斯电影节)
◎IMDb评分 5.3/10 from 386 users
◎IMDb链接 https://www.imdb.com/title/tt10039524/
◎豆瓣评分 5.9/10 from 111 users
◎豆瓣链接 https://movie.douban.com/subject/32526138/
◎片  长 85分钟
◎导  演 泽伊娜·杜拉 Zeina Durra
◎编  剧 泽伊娜·杜拉 Zeina Durra
◎主  演 安德丽娅·赖斯伯勒 Andrea Riseborough
      迈克尔·兰德斯 Michael Landes
      卡里姆·萨利赫 Karim Saleh
      沙希拉·法赫米 Shahira Fahmy

◎标  签 埃及 | 爱情 | 2020 | 英国 | 英国电影 | 剧情 | 电影 | SIFF2020

◎简  介

  英国社工哈娜再次回到埃及古城卢克索的时候,偶遇了她的旧情人苏尔丹。这个浪漫而又有才华的考古学家让故地重游的哈娜情绪跌宕起伏,不断涌现的旧时回忆让哈娜沉醉于过去,却又苦恼于难以预知的未来。

◎获奖情况

  第36届圣丹斯电影节 ?(2020)
  评审团大奖世界电影单元剧情片(提名) 泽伊娜·杜拉
  
  第23届英国独立电影奖 ?(2020)
  最佳女主角(提名) 安德丽娅·赖斯伯勒

Video
ID : 1
Format : AVC
Format/Info : Advanced Video Codec
Format profile : [email protected]
Format settings : CABAC / 4 Ref Frames
Format settings, CABAC : Yes
Format settings, Reference frames : 4 frames
Codec ID : V_MPEG4/ISO/AVC
Duration : 1 h 25 min
Bit rate mode : Constant
Bit rate : 9 004 kb/s
Nominal bit rate : 10 000 kb/s
Width : 1 920 pixels
Height : 1 040 pixels
Display aspect ratio : 1.85:1
Frame rate mode : Constant
Frame rate : 24.000 FPS
Color space : YUV
Chroma subsampling : 4:2:0
Bit depth : 8 bits
Scan type : Progressive
Bits/(Pixel*Frame) : 0.188
Stream size : 5.39 GiB (93%)
Default : Yes
Forced : No
Color range : Limited
Color primaries : BT.709
Transfer characteristics : BT.709
Matrix coefficients : BT.709

Audio
ID : 2
Format : E-AC-3
Format/Info : Enhanced AC-3
Commercial name : Dolby Digital Plus
Codec ID : A_EAC3
Duration : 1 h 25 min
Bit rate mode : Constant
Bit rate : 640 kb/s
Channel(s) : 6 channels
Channel layout : L R C LFE Ls Rs
Sampling rate : 48.0 kHz
Frame rate : 31.250 FPS (1536 SPF)
Compression mode : Lossy
Stream size : 392 MiB (7%)
Language : English
Service kind : Complete Main
Default : Yes
Forced : No

Text
ID : 3
Format : UTF-8
Codec ID : S_TEXT/UTF8
Codec ID/Info : UTF-8 Plain Text
Duration : 1 h 21 min
Bit rate : 32 b/s
Count of elements : 591
Stream size : 19.4 KiB (0%)
Title : SDH
Language : English
Default : No
Forced : No





1 个附件 售价 大小 下载 时间

Luxor.2020.1080p.AMZN.WEBRip.DDP5.1.x264-MRCS.zip 0 金币 29.49K 308 次 6天前

#1楼
发帖时间:2021-04-08 11:43:05   |   回复数:0
游客组